NASCAR Cup Series 2020 Busch Clash at Daytona HDTV x264 720

seeders: 7     leechers: 0     updated: 7 months ago

Downloading Seeding from 0 peers
of -
0 b/s / 0 b/s
    NASCAR Cup Series 2020 Busch Clash at Daytona HDTV x264 720 ( 2.67 GB )
    Downloaded from.txt0.06 kB
    nascar.txt3.84 kB
    NASCAR 2020 MECS Busch Clash at Daytona HDTV x264 720.mkv2.67 GB

    Nascar Cup Series Series

    Busch Clash at Daytona
    Daytona Speedway
    2.9.2020
    1pm EST








    General
    Complete name                            : NASCAR 2020 MECS Busch Clash at Daytona HDTV x264 720.mkv
    Format                                   : Matroska
    Format version                           : Version 4 / Version 2
    File size                                : 2.67 GiB
    Duration                                 : 1 h 44 min
    Overall bit rate                         : 3 659 kb/s
    Encoded date                             : UTC 2020-02-09 22:51:47
    Writing application                      : mkvmerge v28.2.0 ('The Awakening') 64-bit
    Writing library                          : libebml v1.3.6 + libmatroska v1.4.9

    Video
    ID                                       : 1
    Format                                   : AVC
    Format/Info                              : Advanced Video Codec
    Format profile                           : [email protected]
    Format settings, CABAC                   : Yes
    Format settings, RefFrames               : 5 frames
    Codec ID                                 : V_MPEG4/ISO/AVC
    Duration                                 : 1 h 44 min
    Bit rate                                 : 3 272 kb/s
    Width                                    : 1 280 pixels
    Height                                   : 720 pixels
    Display aspect ratio                     : 16:9
    Frame rate mode                          : Constant
    Frame rate                               : 59.940 (59940/1000) FPS
    Original frame rate                      : 59.940 (60000/1001) FPS
    Color space                              : YUV
    Chroma subsampling                       : 4:2:0
    Bit depth                                : 8 bits
    Scan type                                : Progressive
    Bits/(Pixel*Frame)                       : 0.059
    Stream size                              : 2.39 GiB (89%)
    Writing library                          : x264 core 152 r2851 ba24899
    Default                                  : Yes
    Forced                                   : No

    Audio
    ID                                       : 2
    Format                                   : AC-3
    Format/Info                              : Audio Coding 3
    Format settings, Endianness              : Big
    Codec ID                                 : A_AC3
    Duration                                 : 1 h 44 min
    Bit rate mode                            : Constant
    Bit rate                                 : 384 kb/s
    Channel(s)                               : 6 channels
    Channel positions                        : Front: L C R, Side: L R, LFE
    Sampling rate                            : 48.0 kHz
    Frame rate                               : 31.250 FPS (1536 SPF)
    Bit depth                                : 16 bits
    Compression mode                         : Lossy
    Stream size                              : 287 MiB (10%)
    Language                                 : new
    Service kind                             : Complete Main
    Default                                  : Yes
    Forced                                   : No



    SIMILAR

    TORRENT   UPLOADEDSIZESEEDS LEECHS
    NASCAR 2019 MECS Monster Energy Nascar All-Star Race Charlotte HDTV x264 720 by HackRF 1 year 3.40 GB9 1
    NASCAR 2018 MECS Talladega 1000Bulbs.com 500 HDTV x264 720 by HackRF 2 years 4.28 GB4 0
    NASCAR 2020 Cup Series Alsco Uniforms 500 Charlotte HDTV x264 720 by HackRF 4 months 3.99 GB15 4
    NASCAR 2018 MECS AAA Texas 500 HDTV x264 720 by HackRF 2 years 4.35 GB2 0
    NASCAR 2019 MECS Daytona 500 HDTV x264 720 by HackRF 1 year 5.42 GB24 3
    NASCAR 2018 MECS Dover Gander Outdoors 400 HDTV x264 720 by HackRF 2 years 4.60 GB4 0
    NASCAR 2020 Cup Series Pocono Pocono 350 HDTV x264 720 by HackRF 3 months 3.89 GB10 0

    Torrent Hash: 570CA93E8D910AE3B91A03149A8EA8AD1670CA26


    Num Trackers: 10 trackers




    TRACKER'S LIST COMPATIBLE WITH BITTORRENT CLIENT


    TrackerSeedersLeechersCompletedUpdated
    udp://tracker.leechers-paradise.org:6969/announce 7 0 0 7 months
    udp://p4p.arenabg.com:1337/announce 2 0 0 7 months
    udp://tracker.sbsub.com:2710/announce 2 0 0 7 months
    udp://tracker.uw0.xyz:6969/announce 1 0 0 7 months
    udp://denis.stalker.upeer.me:6969/announce 1 0 0 7 months
    udp://open.demonii.si:1337/announce 1 0 0 7 months
    udp://retracker.akado-ural.ru:80/announce 1 0 0 7 months
    udp://tracker.internetwarriors.net:1337/announce 1 0 0 7 months
    udp://tracker.gbitt.info:80/announce 1 0 0 7 months
    udp://tracker.coppersurfer.tk:6969/announce 6 1 0 7 months