NASCAR 2020 Cup Series Pocono Pocono Organics 325 HDTV x264 720

seeders: 26     leechers: 17     updated: 5 hours ago

Downloading Seeding from 0 peers
of -
0 b/s / 0 b/s
    NASCAR 2020 Cup Series Pocono Pocono Organics 325 HDTV x264 720 ( 3.18 GB )
    Downloaded from.txt0.06 kB
    nascar.txt4.16 kB
    NASCAR 2020 Cup Series Pocono Pocono Organics 325 HDTV x264 720.mkv3.18 GB

    NASCAR Cup Series 2020


    Pocono Organics 325
    partnership with Rodale Institute
    Pocono Raceway
    Long Pond, Pennsylvania- 130 laps / 325 miles









    General
    Complete name                            : NASCAR 2020 Cup Series Pocono Pocono Organics 325 HDTV x264 720.mkv
    Format                                   : Matroska
    Format version                           : Version 4
    File size                                : 3.18 GiB
    Duration                                 : 2 h 25 min
    Overall bit rate                         : 3 133 kb/s
    Encoded date                             : UTC 2020-06-27 23:51:10
    Writing application                      : mkvmerge v43.0.0 ('The Quartermaster') 64-bit
    Writing library                          : libebml v1.3.10 + libmatroska v1.5.2

    Video
    ID                                       : 1
    Format                                   : AVC
    Format/Info                              : Advanced Video Codec
    Format profile                           : [email protected]
    Format settings                          : CABAC / 5 Ref Frames
    Format settings, CABAC                   : Yes
    Format settings, RefFrames               : 5 frames
    Codec ID                                 : V_MPEG4/ISO/AVC
    Duration                                 : 2 h 25 min
    Bit rate                                 : 2 745 kb/s
    Width                                    : 1 280 pixels
    Height                                   : 720 pixels
    Display aspect ratio                     : 16:9
    Frame rate mode                          : Constant
    Frame rate                               : 59.940 (59940/1000) FPS
    Original frame rate                      : 59.940 (60000/1001) FPS
    Color space                              : YUV
    Chroma subsampling                       : 4:2:0
    Bit depth                                : 8 bits
    Scan type                                : Progressive
    Bits/(Pixel*Frame)                       : 0.050
    Stream size                              : 2.78 GiB (88%)
    Writing library                          : x264 core 152 r2851 ba24899
    Default                                  : Yes
    Forced                                   : No

    Audio
    ID                                       : 2
    Format                                   : AC-3
    Format/Info                              : Audio Coding 3
    Commercial name                          : Dolby Digital
    Codec ID                                 : A_AC3
    Duration                                 : 2 h 25 min
    Bit rate mode                            : Constant
    Bit rate                                 : 384 kb/s
    Channel(s)                               : 6 channels
    Channel layout                           : L R C LFE Ls Rs
    Sampling rate                            : 48.0 kHz
    Frame rate                               : 31.250 FPS (1536 SPF)
    Bit depth                                : 16 bits
    Compression mode                         : Lossy
    Stream size                              : 399 MiB (12%)
    Language                                 : new
    Service kind                             : Complete Main
    Default                                  : Yes
    Forced                                   : No




    SIMILAR

    TORRENT   UPLOADEDSIZESEEDS LEECHS
    NASCAR 2020 Cup Series Alsco Uniforms 500 Charlotte HDTV x264 720 by HackRF 1 month 3.99 GB15 4
    NASCAR 2020 Cup Series Daytona 500 HDTV x264 720 by HackRF 4 months 7.62 GB24 1
    NASCAR 2020 Cup Series Pennzoil 400 Las Vegas HDTV x264 720 by HackRF 4 months 4.06 GB22 1
    NASCAR 2020 Cup Series Toyota 500 Darlington HDTV x264 720 by HackRF 1 month 4.92 GB23 19
    NASCAR 2020 Cup Series Talladega GEICO 500 HDTV x264 720 by HackRF 1 week 4.71 GB15 1
    NASCAR 2020 Cup Series The Real Heroes 400 Darlington HDTV x264 720 by HackRF 1 month 5.65 GB10 0
    NASCAR 2020 Cup Series Bluegreen Vacations Duel at Daytona HDTV x 264 720 by HackRF 4 months 3.89 GB10 0

    Torrent Hash: 0F06F7062712D3D4E29EB3C8A57EEEB9C8FEF49C


    Num Trackers: 10 trackers




    TRACKER'S LIST COMPATIBLE WITH BITTORRENT CLIENT


    TrackerSeedersLeechersCompletedUpdated
    udp://threads.run:6969/announce 1 1 0 4 days
    udp://vibe.community:6969/announce 1 1 0 4 days
    udp://p4p.arenabg.com:1337/announce 1 1 0 4 days
    udp://tracker.shkinev.me:6969/announce 1 1 0 4 days
    udp://retracker.akado-ural.ru:80/announce 1 1 0 4 days
    udp://retracker.lanta-net.ru:2710/announce 7 4 0 4 days
    http://tracker.gbitt.info:80/announce 16 8 0 4 days
    udp://tracker.leechers-paradise.org:6969/announce 20 6 0 4 days
    udp://tracker.gbitt.info:80/announce 22 10 0 4 days
    udp://tracker.coppersurfer.tk:6969/announce 26 17 0 4 days