NASCAR 2020 Cup Series Bluegreen Vacations Duel at Daytona HDTV x 264 720

seeders: 10     leechers: 0     updated: 7 months ago

Downloading Seeding from 0 peers
of -
0 b/s / 0 b/s
    NASCAR 2020 Cup Series Bluegreen Vacations Duel at Daytona HDTV x 264 720 ( 3.89 GB )
    NASCAR 2020 Cup Series Bluegreen Vacations Duel at Daytona HDTV x 264 720.mkv3.89 GB
    Downloaded from.txt0.06 kB
    nascar.txt4.17 kB

    NASCAR Cup Series 2020

    Bluegreen Vacations Duel at Daytona
    Daytona International Speedway
    Thursday 13, 2020 | 5:30 PM ET












    General
    Complete name                            : NASCAR 2020 Cup Series Bluegreen Vacations Duel at Daytona HDTV x 264 720.mkv
    Format                                   : Matroska
    Format version                           : Version 4
    File size                                : 3.89 GiB
    Duration                                 : 2 h 3 min
    Overall bit rate                         : 4 499 kb/s
    Encoded date                             : UTC 2020-02-14 04:07:12
    Writing application                      : mkvmerge v28.2.0 ('The Awakening') 64-bit
    Writing library                          : libebml v1.3.6 + libmatroska v1.4.9

    Video
    ID                                       : 1
    Format                                   : AVC
    Format/Info                              : Advanced Video Codec
    Format profile                           : [email protected]
    Format settings                          : CABAC / 5 Ref Frames
    Format settings, CABAC                   : Yes
    Format settings, RefFrames               : 5 frames
    Codec ID                                 : V_MPEG4/ISO/AVC
    Duration                                 : 2 h 3 min
    Bit rate                                 : 4 111 kb/s
    Width                                    : 1 280 pixels
    Height                                   : 720 pixels
    Display aspect ratio                     : 16:9
    Frame rate mode                          : Constant
    Frame rate                               : 59.940 (59940/1000) FPS
    Original frame rate                      : 59.940 (60000/1001) FPS
    Color space                              : YUV
    Chroma subsampling                       : 4:2:0
    Bit depth                                : 8 bits
    Scan type                                : Progressive
    Bits/(Pixel*Frame)                       : 0.074
    Stream size                              : 3.55 GiB (91%)
    Writing library                          : x264 core 152 r2851 ba24899
    Default                                  : Yes
    Forced                                   : No

    Audio
    ID                                       : 2
    Format                                   : AC-3
    Format/Info                              : Audio Coding 3
    Commercial name                          : Dolby Digital
    Codec ID                                 : A_AC3
    Duration                                 : 2 h 3 min
    Bit rate mode                            : Constant
    Bit rate                                 : 384 kb/s
    Channel(s)                               : 6 channels
    Channel layout                           : L R C LFE Ls Rs
    Sampling rate                            : 48.0 kHz
    Frame rate                               : 31.250 FPS (1536 SPF)
    Bit depth                                : 16 bits
    Compression mode                         : Lossy
    Stream size                              : 340 MiB (9%)
    Language                                 : new
    Service kind                             : Complete Main
    Default                                  : Yes
    Forced                                   : No



    SIMILAR

    TORRENT   UPLOADEDSIZESEEDS LEECHS
    NASCAR 2020 Cup Series Alsco Uniforms 500 Charlotte HDTV x264 720 by HackRF 4 months 3.99 GB15 4
    NASCAR 2020 Cup Series Daytona 500 HDTV x264 720 by HackRF 7 months 7.62 GB24 1
    NASCAR 2020 Cup Series Toyota 500 Darlington HDTV x264 720 by HackRF 4 months 4.92 GB23 19
    NASCAR 2020 Cup Series Talladega GEICO 500 HDTV x264 720 by HackRF 3 months 4.71 GB15 1
    NASCAR 2020 Cup Series Pennzoil 400 Las Vegas HDTV x264 720 by HackRF 7 months 4.06 GB22 1
    NASCAR 2020 Cup Series Bristol All-Star Race HDTV x264 720 by HackRF 2 months 2.47 GB11 3
    NASCAR 2020 Cup Series Auto Club 400 Fontana HDTV x264 720 by HackRF 7 months 3.37 GB0 0

    Torrent Hash: D83A17D93280F934E38D98BD7BAFB1BC55F99309


    Num Trackers: 9 trackers




    TRACKER'S LIST COMPATIBLE WITH BITTORRENT CLIENT


    TrackerSeedersLeechersCompletedUpdated
    udp://denis.stalker.upeer.me:6969/announce 3 0 0 7 months
    udp://tracker.leechers-paradise.org:6969/announce 10 0 0 7 months
    udp://retracker.lanta-net.ru:2710/announce 3 0 0 7 months
    udp://tracker.sbsub.com:2710/announce 3 1 0 7 months
    udp://open.demonii.si:1337/announce 3 1 0 7 months
    udp://retracker.akado-ural.ru:80/announce 1 0 0 7 months
    udp://tracker.coppersurfer.tk:6969/announce 9 1 0 7 months
    udp://tracker.kamigami.org:2710/announce 3 0 0 7 months
    udp://p4p.arenabg.com:1337/announce 2 0 0 7 months