NASCAR 2019 MECS Drydene 400 Dover HDTV x264 720

seeders: 8     leechers: 0     updated: 4 days ago

Downloading Seeding from 0 peers
of -
0 b/s / 0 b/s

Warning! Use a VPN When Downloading Torrents.


Your IP Address is 100.24.122.228 Location is US.
Hide your IP ADDRESS with a VPN!

Get VPN App Mac Now!


    NASCAR 2019 MECS Drydene 400 Dover HDTV x264 720 ( 3.56 GB )
    Downloaded from.txt0.06 kB
    nascar.txt3.84 kB
    NASCAR 2019 MECS Drydene 400 Dover HDTV x264 720.mkv3.56 GB

    By the way you can play this film on Mac with Elmedia Player

    Nascar 2019 Monster Energy Series

    Drydene 400
    Dover International Speedway
    Sunday, Oct 6
    2:30 PM






    General
    Complete name                            : NASCAR 2019 MECS Drydene 400  Dover HDTV x264 720.mkv
    Format                                   : Matroska
    Format version                           : Version 4
    File size                                : 3.56 GiB
    Duration                                 : 2 h 34 min
    Overall bit rate                         : 3 293 kb/s
    Encoded date                             : UTC 2019-10-06 22:41:27
    Writing application                      : mkvmerge v28.2.0 ('The Awakening') 64-bit
    Writing library                          : libebml v1.3.6 + libmatroska v1.4.9

    Video
    ID                                       : 1
    Format                                   : AVC
    Format/Info                              : Advanced Video Codec
    Format profile                           : [email protected]
    Format settings                          : CABAC / 5 Ref Frames
    Format settings, CABAC                   : Yes
    Format settings, RefFrames               : 5 frames
    Codec ID                                 : V_MPEG4/ISO/AVC
    Duration                                 : 2 h 34 min
    Bit rate                                 : 2 906 kb/s
    Width                                    : 1 280 pixels
    Height                                   : 720 pixels
    Display aspect ratio                     : 16:9
    Frame rate mode                          : Constant
    Frame rate                               : 59.940 (60000/1001) FPS
    Color space                              : YUV
    Chroma subsampling                       : 4:2:0
    Bit depth                                : 8 bits
    Scan type                                : Progressive
    Bits/(Pixel*Frame)                       : 0.053
    Stream size                              : 3.14 GiB (88%)
    Writing library                          : x264 core 152 r2851 ba24899
    Default                                  : Yes
    Forced                                   : No

    Audio
    ID                                       : 2
    Format                                   : AC-3
    Format/Info                              : Audio Coding 3
    Commercial name                          : Dolby Digital
    Codec ID                                 : A_AC3
    Duration                                 : 2 h 34 min
    Bit rate mode                            : Constant
    Bit rate                                 : 384 kb/s
    Channel(s)                               : 6 channels
    Channel layout                           : L R C LFE Ls Rs
    Sampling rate                            : 48.0 kHz
    Frame rate                               : 31.250 FPS (1536 SPF)
    Bit depth                                : 16 bits
    Compression mode                         : Lossy
    Stream size                              : 425 MiB (12%)
    Language                                 : new
    Service kind                             : Complete Main
    Default                                  : Yes
    Forced                                   : No



    SIMILAR

    TORRENT   UPLOADEDSIZESEEDS LEECHS
    NASCAR 2019 MECS Monster Energy Nascar All-Star Race Charlotte HDTV x264 720 by HackRF 5 months 3.40 GB9 1
    NASCAR 2019 MECS Daytona 500 HDTV x264 720 by HackRF 8 months 5.42 GB24 3
    NASCAR 2019 MECS STP-500 Martinsville HDTV x264 720 by HackRF 7 months 5.11 GB30 14
    Nascar.Raceday.2019.05.03.720p.WEB.h264-LiGATE[TGx] by sotnikam 6 months 712.30 MB1 0
    NASCAR 2019 MECS TicketGuardian 500 Phoenix HDTV x264 720 by HackRF 8 months 3.99 GB5 0
    NASCAR 2019 MECS Pennzoil 400 Las Vegas HDTV x264 720 by HackRF 8 months 2.98 GB8 14
    NASCAR 2019 MECS Gander RV 400 Pocono HDTV x264 720 by HackRF 3 months 3.52 GB6 1

    Torrent Hash: 30E6F48177611D7F135ABA9D7C68F8061BFFFFC8


    Num Trackers: 9 trackers




    TRACKER'S LIST COMPATIBLE WITH BITTORRENT CLIENT


    TrackerSeedersLeechersCompletedUpdated
    udp://tracker.gbitt.info:80/announce 7 0 0 4 days
    udp://tracker.leechers-paradise.org:6969/announce 8 0 0 4 days
    http://tracker.gbitt.info:80/announce 8 0 0 4 days
    udp://tracker.coppersurfer.tk:6969/announce 6 0 0 4 days
    udp://denis.stalker.upeer.me:6969/announce 1 0 0 4 days
    udp://retracker.lanta-net.ru:2710/announce 1 0 0 4 days
    udp://tracker.internetwarriors.net:1337/announce 1 0 0 4 days
    udp://torrentclub.tech:6969/announce 1 0 0 4 days
    udp://open.demonii.si:1337/announce 1 0 0 4 days