My Mix vol.2 (2019) M4A

seeders: 2     leechers: 0     updated: 1 day ago

Downloading Seeding from 0 peers
of -
0 b/s / 0 b/s

Warning! Use a VPN When Downloading Torrents.


Your IP Address is 3.226.251.81 Location is US.
Hide your IP ADDRESS with a VPN!

Get VPN App Mac Now!


    My Mix vol.2 (2019) M4A ( 105.38 MB )


    Quality-Lossless
    Release-2019 (old and new)
    Duration-00:57:02
    File Size-110.5 MB
    Genre-Electronic
    Cover Size-1400px

    ----------------------------------------------------------------------------------------------
    Analyzed: My Mix vol.2 /  Artist: V.A
    ----------------------------------------------------------------------------------------------
    DR Peak RMS Duration Title [codec]
    ----------------------------------------------------------------------------------------------
    DR5 -0.00 dB -7.17 dB 4:30 01 - Always (Above & Beyond Club Mix - Edit) [None]
    DR2 -0.00 dB -5.39 dB 2:20 02 - Home [None]
    DR4 -0.00 dB -6.57 dB 3:31 03 - Madness [None]
    DR3 -0.00 dB -5.96 dB 3:00 04 - Survive (VIP Mix) [None]
    DR3 -0.00 dB -5.73 dB 3:12 05 - The Fall [None]
    DR4 -0.00 dB -6.99 dB 2:52 06 - Want U [None]
    DR5 -0.00 dB -7.16 dB 8:08 07 - Always (Above & Beyond Club Mix) [None]
    DR3 -0.00 dB -6.45 dB 4:12 08 - At The End Of The Night (Original Mix) [None]
    DR3 -0.00 dB -7.67 dB 4:57 09 - From Here (Extended Mix) [None]
    DR2 -0.00 dB -4.45 dB 4:30 10 - Beautiful Asian (Extended Mix) [None]
    DR4 -0.00 dB -7.81 dB 6:26 11 - Feel The Night [None]
    DR3 -0.00 dB -7.55 dB 4:04 12 - Ready to Rave [None]
    DR4 -0.00 dB -6.46 dB 5:16 13 - Break The Spell [None]
    ----------------------------------------------------------------------------------------------
    Number of files:    13
    Official DR value:  DR3

    Sampling rate: 44100 Hz
    Average bitrate: 258kbs
    Bits per sample: 16 bit



    Torrent Hash: 77BB874B91FD86447680687488BEEAAE99C3E44B


    Num Trackers: 8 trackers




    TRACKER'S LIST COMPATIBLE WITH BITTORRENT CLIENT


    TrackerSeedersLeechersCompletedUpdated
    udp://explodie.org:6969/announce 2 0 0 1 day
    udp://tracker.coppersurfer.tk:6969/announce 2 0 0 1 day
    udp://bt.xxxtracker.unblockninja.info:2710/announce 1 0 0 1 day
    udp://torrentclub.tech:6969/announce 1 0 0 1 day
    udp://denis.stalker.upeer.me:6969/announce 1 0 0 1 day
    udp://tracker.moeking.me:6969/announce 1 0 0 1 day
    udp://open.demonii.si:1337/announce 1 0 0 1 day
    udp://tracker.internetwarriors.net:1337/announce 1 0 0 1 day

    No comments yet.