Kyau & Albert - Matching Stories (2017) Flac

seeders: 1     leechers: 2     updated: 1 day ago

Downloading Seeding from 0 peers
of -
0 b/s / 0 b/s

Warning! Use a VPN When Downloading Torrents.


Your IP Address is 3.226.251.81 Location is US.
Hide your IP ADDRESS with a VPN!

Get VPN App Mac Now!


    Kyau & Albert - Matching Stories (2017) Flac ( 476.96 MB )


    Quality-Lossless
    Release-2017
    Duration-01:04:06
    File Size-500.1 MB
    Genre-Electronic
    Cover Size-1400px

    ----------------------------------------------------------------------------------------------
    Analyzed: Matching Stories /  Artist: Kyau & Albert
    ----------------------------------------------------------------------------------------------
    DR Peak RMS Duration Title [codec]
    ----------------------------------------------------------------------------------------------
    DR4 -0.01 dB -7.50 dB 7:12 01 - Memory Lane (Album Rework) [flac]
    DR5 -0.13 dB -7.83 dB 4:38 02 - Mein Herz (Original Mix) [flac]
    DR4 -0.10 dB -7.72 dB 4:37 03 - About the Sun (Album Rework) [flac]
    DR4 -0.13 dB -7.15 dB 5:23 04 - Love Letter from the Future (Album Version) [flac]
    DR3 -0.01 dB -6.37 dB 3:56 05 - Trace (Album Version) [flac]
    DR5 -0.01 dB -7.77 dB 4:34 06 - Bring You Back (Original Mix) [flac]
    DR6 -0.13 dB -8.66 dB 3:50 07 - Spüren (Original Mix) [flac]
    DR5 -0.01 dB -8.02 dB 3:23 08 - Changes (Album Version) [flac]
    DR5 -0.01 dB -6.61 dB 3:23 09 - What You're About to Burn (Original Mix) [flac]
    DR4 -0.01 dB -7.47 dB 5:13 10 - Delorean (Album Version) [flac]
    DR4 -0.00 dB -6.30 dB 4:37 11 - Sleeping Lions (Album Version) [flac]
    DR4 -0.13 dB -7.23 dB 4:12 12 - Gamla Stan (Album Version) [flac]
    DR5 -0.13 dB -9.39 dB 4:33 13 - Wanderlust (Album Version) [flac]
    DR7 -0.13 dB -8.86 dB 4:28 14 - Meteorite (Original Mix) [flac]
    ----------------------------------------------------------------------------------------------
    Number of files:    14
    Official DR value:  DR5

    Sampling rate: 44100 Hz
    Average bitrate: 1032kbs
    Bits per sample: 16 bit



    SIMILAR

    TORRENT   UPLOADEDSIZESEEDS LEECHS
    Jimmy Page and Albert Lee - Everything I Do Is Wrong [Flac][TntVillage] by leonenero 1 year 238.40 MB9 2
    Steven Wilson - Home Invasion At The Royal Albert Hall (2018) by kajalsus 10 months 341.10 MB46 2
    Albert.2016.DVDRip.x264-GHOULS by TvTeam 10 months 249.94 MB0 2
    Albert.2016.DVDRip.x264-GHOULS[EtMovies] by EtHD 10 months 249.94 MB1 0
    Mafias.Greatest.Hits.S02E02.Albert.Anastasia.XviD-AFG by TvTeam 9 months 431.67 MB1 2
    The.Secrets.of.Gravity.In.the.Footsteps.of.Albert.Einstein.20... by EtHD 8 months 211.73 MB9 1
    Albert.2016.DVDRip.x264.LLG by LifeLongg 10 months 319.42 MB1 1

    Torrent Hash: E38014B6FD5646199D40553ADA155F08BD0D8229


    Num Trackers: 5 trackers




    TRACKER'S LIST COMPATIBLE WITH BITTORRENT CLIENT


    TrackerSeedersLeechersCompletedUpdated
    udp://tracker.coppersurfer.tk:6969/announce 1 1 0 1 day
    udp://tracker.pirateparty.gr:6969/announce 1 2 0 1 day
    udp://explodie.org:6969/announce 1 0 0 1 day
    udp://tracker.leechers-paradise.org:6969/announce 0 1 0 1 day
    udp://open.demonii.si:1337/announce 1 0 0 1 day

    No comments yet.